The.Lion.King.2019.NEW.HQ.HCTC.XviD.B4ND1T69 torrent download

To start this The.Lion.King.2019.NEW.HQ.HCTC.XviD.B4ND1T69 torrent download, you need a free bitTorrent client like  µTorrent .


Informations for The.Lion.King.2019.NEW.HQ.HCTC.XviD.B4ND1T69 torrent

Bookmark this The.Lion.King.2019.NEW.HQ.HCTC.XviD.B4ND1T69 torrent.

Seeds 27
Peers 169
Size 1.3 GB
Comments 0
Category Movies
Hash EC3EEC467BC6A1DBD7C025437847F64BDA6B9E52
Reported Fake  ( 0 Password  ( 0 Bad quality  ( 0 Virus  ( 0 Offensive  ( 0 Spam  ( 0 Real Torrent  ( 0
Bookmark

Description for The.Lion.King.2019.NEW.HQ.HCTC.XviD.B4ND1T69 torrent

The.Lion.King.2019.NEW.HQ.HCTC.XviD.B4ND1T69



Director: Jon Favreau
Writers: Jeff Nathanson (screenplay by), Brenda Chapman (story)
Stars: Donald Glover, Beyoncé, Seth Rogen

Plot/Story:
After the murder of his father, a young lion prince flees his kingdom only to learn the true meaning of responsibility and bravery.

Notes:
Clean print, gave it a polish, blurred out any text that appears, full movie, nothing missing, hardcoded Chinese subs throughout...Samples included(3)...Enjoy.

General
Complete name : The.Lion.King.2019.NEW.HQ.HCTC.XviD.B4ND1T69.avi
Format : AVI
Format/Info : Audio Video Interleave
File size : 1.29 GiB
Duration : 1 h 48 min
Overall bit rate : 1 715 kb/s

Video
ID : 0
Format : MPEG-4 Visual
Format profile : Advanced [email protected]
Format settings, BVOP : 2
Format settings, QPel : No
Format settings, GMC : No warppoints
Format settings, Matrix : Default (H.263)
Codec ID : XVID
Codec ID/Hint : XviD
Duration : 1 h 48 min
Bit rate : 1 574 kb/s
Width : 720 pixels
Height : 400 pixels
Display aspect ratio : 16:9
Frame rate : 23.940 FPS
Color space : YUV
Chroma subsampling : 4:2:0
Bit depth : 8 bits
Scan type : Progressive
Compression mode : Lossy
Bits/(Pixel*Frame) : 0.228
Stream size : 1.19 GiB (92%)
Writing library : XviD 64

Audio
ID : 1
Format : MPEG Audio
Format version : Version 1
Format profile : Layer 3
Mode : Joint stereo
Mode extension : MS Stereo
Codec ID : 55
Codec ID/Hint : MP3
Duration : 1 h 2 min
Source duration : 1 h 48 min
Bit rate mode : Constant
Bit rate : 128 kb/s
Channel(s) : 2 channels
Sampling rate : 48.0 kHz
Compression mode : Lossy
Stream size : 98.9 MiB (7%)
Alignment : Aligned on interleaves
Interleave, duration : 24 ms (0.57 video frame)

Screenshots:

https://i.imgur.com/UbO9t9X.png
https://i.imgur.com/bOugycR.png
https://i.imgur.com/RabGqcK.png
https://i.imgur.com/v99v6qy.png
https://i.imgur.com/Siq5KsM.png
https://i.imgur.com/zSGC69z.png
https://i.imgur.com/h8wJQSU.png
https://i.imgur.com/zhFqVX0.png









Please Seed For As Long As Possible
Or At Least 1:1 Ratio...Thanks
Enjoy Peeps


Trackers for The.Lion.King.2019.NEW.HQ.HCTC.XviD.B4ND1T69 torrent

Name Last Check

Comments for The.Lion.King.2019.NEW.HQ.HCTC.XviD.B4ND1T69 torrent

0 Comments

Sign in  |  Create a new account


Files in The.Lion.King.2019.NEW.HQ.HCTC.XviD.B4ND1T69 torrent

Torrent Name Size
1337x text file.txt 0.1 KB
Downloaded from katcr.co.txt 0.1 KB
Sample.2.avi 9.5 MB
Sample.1.avi 15.8 MB
Sample.3.avi 24.7 MB
The.Lion.King.2019.NEW.HQ.HCTC.XviD.B4ND1T69.avi 1.3 GB

Share The.Lion.King.2019.NEW.HQ.HCTC.XviD.B4ND1T69 torrent download links